+ ShareSpark.net »  :::: Bollywood Zone » Regional Movies
|- Spyder (2017) (Telugu) 1CD HDRip x264 [850MB] 720p


Electroncs Sale
  • Spyder (2017) (Telugu) 1CD HDRip x264 [850MB] 720p 3 1
Currently:  

Spyder (2017) (Telugu) 1CD HDRip x264 [850MB] 720p

0 Members and 1 Guest are viewing this topic.

September 29, 2017, 08:16:28 PM
  • Team SSX
  • Special Member
  • ***
  • Topic Author
  • Thank You: 125
  • Reputation: 19
  • Activity:
    0.4%
  • Country: pk
  • Posts: 723
  • Topics: 494
  • Join Date: Nov 2012
  • Upgrade My Reputation







IMDB:
Code: [Select]
http://www.imdb.com/title/tt6522546/
Release Info:
Code: [Select]
Complete name                            : Spyder.2017.1CD.HDRip.x264.720p.By.Rj.Rabasha.mp4
Format                                   : MPEG-4
Format profile                           : Base Media / Version 2
Codec ID                                 : mp42 (isom/mp42)
File size                                : 853 MiB
Duration                                 : 2 h 16 min
Overall bit rate mode                    : Variable
Overall bit rate                         : 873 kb/s
Encoded date                             : UTC 2018-08-24 20:18:29
Tagged date                              : UTC 2018-08-24 20:18:29
gsst                                     : 0
gstd                                     : 8192301

Video
ID                                       : 1
Format                                   : AVC
Format/Info                              : Advanced Video Codec
Format profile                           : [email protected]
Format settings                          : CABAC / 3 Ref Frames
Format settings, CABAC                   : Yes
Format settings, ReFrames                : 3 frames
Codec ID                                 : avc1
Codec ID/Info                            : Advanced Video Coding
Duration                                 : 2 h 16 min
Bit rate                                 : 744 kb/s
Width                                    : 1 280 pixels
Height                                   : 720 pixels
Display aspect ratio                     : 16:9
Frame rate mode                          : Constant
Frame rate                               : 29.970 (30000/1001) FPS
Color space                              : YUV
Chroma subsampling                       : 4:2:0
Bit depth                                : 8 bits
Scan type                                : Progressive
Bits/(Pixel*Frame)                       : 0.027
Stream size                              : 726 MiB (85%)
Title                                    : ISO Media file produced by Google Inc. Created on: 08/24/2018.
Encoded date                             : UTC 2018-08-24 20:18:29
Tagged date                              : UTC 2018-08-24 20:18:29
Color range                              : Limited
Color primaries                          : BT.709
Transfer characteristics                 : BT.709
Matrix coefficients                      : BT.709

Audio
ID                                       : 2
Format                                   : AAC
Format/Info                              : Advanced Audio Codec
Format profile                           : LC
Codec ID                                 : mp4a-40-2
Duration                                 : 2 h 16 min
Source duration                          : 2 h 16 min
Bit rate mode                            : Variable
Bit rate                                 : 126 kb/s
Channel(s)                               : 2 channels
Channel positions                        : Front: L R
Sampling rate                            : 44.1 kHz
Frame rate                               : 43.066 FPS (1024 SPF)
Compression mode                         : Lossy
Stream size                              : 123 MiB (14%)
Source stream size                       : 123 MiB (14%)
Title                                    : ISO Media file produced by Google Inc. Created on: 08/24/2018.
Encoded date                             : UTC 2018-08-24 20:18:29
Tagged date                              : UTC 2018-08-24 20:18:29

















Code: [Select]
http://openload.co/f/soIGLwDVqxI


Code: [Select]
http://bdupload.info/x8yi1uevcb3s


Code: [Select]
http://www.indishare.me/yngstngz4vhh


Code: [Select]
http://uptobox.com/pm8yrp4wncmd



Code: [Select]
http://vidoza.net/2t35hwqhudqf.html






Share this topic on FacebookShare this topic on GoogleShare this topic on MySpaceShare this topic on TwitterShare this topic on Yahoo

« Last Edit: September 06, 2018, 04:19:53 PM by Rabasha »


Thanks given by:


November 04, 2017, 08:43:02 PM
Reply #1
  • Team SSX
  • Special Member
  • ***
  • Topic Author
  • Thank You: 125
  • Reputation: 19
  • Activity:
    0.4%
  • Country: pk
  • Posts: 723
  • Topics: 494
  • Join Date: Nov 2012
  • Upgrade My Reputation

November 12, 2017, 06:14:51 PM
Reply #2
  • Team SSX
  • Special Member
  • ***
  • Topic Author
  • Thank You: 125
  • Reputation: 19
  • Activity:
    0.4%
  • Country: pk
  • Posts: 723
  • Topics: 494
  • Join Date: Nov 2012
  • Upgrade My Reputation

January 21, 2018, 02:22:06 AM
Reply #3
  • Devoted Member
  • **
  • Thank You: 0
  • Reputation: 0
  • Activity:
    0%
  • Country: in
  • Posts: 105
  • Topics: 0
  • Join Date: Aug 2015
  • ShareSpark Member

September 06, 2018, 04:21:00 PM
Reply #4
  • Team SSX
  • Special Member
  • ***
  • Topic Author
  • Thank You: 125
  • Reputation: 19
  • Activity:
    0.4%
  • Country: pk
  • Posts: 723
  • Topics: 494
  • Join Date: Nov 2012
  • Upgrade My Reputation
All Links Updated [06-Sep-2018]
New Version & New Host Added

Tags:
 

Related Topics

  Subject / Started by Replies Last post
1 Replies
1446 Views
Last post January 16, 2018, 08:40:35 PM
by gireeshsuman
0 Replies
781 Views
Last post December 13, 2017, 06:41:25 AM
by PSYCHO
2 Replies
969 Views
Last post May 12, 2018, 04:57:05 PM
by YOGESH19
3 Replies
896 Views
Last post May 13, 2018, 04:05:06 PM
by 501
2 Replies
934 Views
Last post May 17, 2018, 07:38:37 PM
by Vagabond




Back to top
Amazon Shopping - Ofertas | Children | Uber Lite