+ ShareSpark.net »  :::: Bollywood Zone » Regional Movies
|- Mersal (2017) (Tamil) 1CD HDRip x264 [1GB] 720p 1 Link


Redmi 6A

Mersal (2017) (Tamil) 1CD HDRip x264 [1GB] 720p 1 Link

0 Members and 1 Guest are viewing this topic.

October 19, 2017, 10:05:44 PM
  • Team SSX
  • Special Member
  • ***
  • Topic Author
  • Thank You: 125
  • Reputation: 19
  • Activity:
    0.4%
  • Country: pk
  • Posts: 723
  • Topics: 494
  • Join Date: Nov 2012
  • Upgrade My Reputation







IMDB:
Code: [Select]
http://www.imdb.com/title/tt6485666/
Code: [Select]
General
Complete name                            : Backup1.Mersal.2017.Tamil.1CD.HDRip.x264.720p.mp4
Format                                   : MPEG-4
Format profile                           : Base Media / Version 2
Codec ID                                 : mp42 (isom/mp42)
File size                                : 1.13 GiB
Duration                                 : 2 h 42 min
Overall bit rate mode                    : Variable
Overall bit rate                         : 997 kb/s
Encoded date                             : UTC 2018-10-28 07:44:28
Tagged date                              : UTC 2018-10-28 07:44:28
gsst                                     : 0
gstd                                     : 9760600

Video
ID                                       : 1
Format                                   : AVC
Format/Info                              : Advanced Video Codec
Format profile                           : [email protected]
Format settings                          : CABAC / 3 Ref Frames
Format settings, CABAC                   : Yes
Format settings, ReFrames                : 3 frames
Codec ID                                 : avc1
Codec ID/Info                            : Advanced Video Coding
Duration                                 : 2 h 42 min
Bit rate                                 : 868 kb/s
Width                                    : 1 280 pixels
Height                                   : 720 pixels
Display aspect ratio                     : 16:9
Frame rate mode                          : Constant
Frame rate                               : 30.000 FPS
Color space                              : YUV
Chroma subsampling                       : 4:2:0
Bit depth                                : 8 bits
Scan type                                : Progressive
Bits/(Pixel*Frame)                       : 0.031
Stream size                              : 1 010 MiB (87%)
Title                                    : ISO Media file produced by Google Inc. Created on: 10/28/2018.
Encoded date                             : UTC 2018-10-28 07:44:28
Tagged date                              : UTC 2018-10-28 07:44:28
Color range                              : Limited
Color primaries                          : BT.709
Transfer characteristics                 : BT.709
Matrix coefficients                      : BT.709
Codec configuration box                  : avcC

Audio
ID                                       : 2
Format                                   : AAC LC
Format/Info                              : Advanced Audio Codec Low Complexity
Codec ID                                 : mp4a-40-2
Duration                                 : 2 h 42 min
Bit rate mode                            : Variable
Bit rate                                 : 126 kb/s
Channel(s)                               : 2 channels
Channel layout                           : L R
Sampling rate                            : 44.1 kHz
Frame rate                               : 43.066 FPS (1024 SPF)
Compression mode                         : Lossy
Stream size                              : 146 MiB (13%)
Title                                    : ISO Media file produced by Google Inc. Created on: 10/28/2018.
Encoded date                             : UTC 2018-10-28 07:44:28
Tagged date                              : UTC 2018-10-28 07:44:28

















Code: [Select]
http://bdupload.info/u6l8iw703h44


Code: [Select]
http://www.indishare.me/sps569oal96q


Code: [Select]
http://vidoza.net/1xt2dhfm4729.html


Code: [Select]
http://uptobox.com/yvw6mxee7p0z




Share this topic on FacebookShare this topic on GoogleShare this topic on MySpaceShare this topic on TwitterShare this topic on Yahoo

« Last Edit: January 25, 2019, 11:53:33 PM by Rabasha »



October 25, 2017, 07:25:16 PM
Reply #1
  • Team SSX
  • Special Member
  • ***
  • Topic Author
  • Thank You: 125
  • Reputation: 19
  • Activity:
    0.4%
  • Country: pk
  • Posts: 723
  • Topics: 494
  • Join Date: Nov 2012
  • Upgrade My Reputation

January 14, 2019, 05:18:22 PM
Reply #2
  • Newbie
  • **
  • Thank You: 0
  • Reputation: 0
  • Activity:
    0.2%
  • Country: de
  • Posts: 1
  • Topics: 0
  • Join Date: Jan 2019
  • ShareSpark Member
Download missing dll from
page. Fix the error now!

January 25, 2019, 11:54:03 PM
Reply #3
  • Team SSX
  • Special Member
  • ***
  • Topic Author
  • Thank You: 125
  • Reputation: 19
  • Activity:
    0.4%
  • Country: pk
  • Posts: 723
  • Topics: 494
  • Join Date: Nov 2012
  • Upgrade My Reputation

Tags:
 

Related Topics

  Subject / Started by Replies Last post
0 Replies
694 Views
Last post September 25, 2017, 06:59:22 PM
by Rabasha
0 Replies
606 Views
Last post November 04, 2017, 03:20:13 PM
by Rabasha
0 Replies
1087 Views
Last post November 20, 2017, 11:42:05 PM
by a2zRG
0 Replies
866 Views
Last post November 24, 2017, 06:13:29 PM
by PSYCHO
3 Replies
1244 Views
Last post December 07, 2017, 09:16:34 AM
by UnikAaYush




Back to top
Imitatieleren enkellaarsjes | hits ete | 4x04 Catastrophe