+ ShareSpark.net »  :::: Dubbed Zone (Dubbed English in Hindi) » English Movies Dubbed in Hindi » Dubbed Hindi Audio Files
|- Back to the Future Trilogy 5.1 Hindi Audio


100% Recharge Offer
  • Back to the Future Trilogy 5.1 Hindi Audio 5 1
Currently:  

Back to the Future Trilogy 5.1 Hindi Audio

0 Members and 1 Guest are viewing this topic.

August 18, 2018, 01:42:19 AM
  • Semi Newbie
  • **
  • Topic Author
  • Thank You: 15
  • Reputation: 1
  • Activity:
    0.2%
  • Country: in
  • Posts: 6
  • Topics: 2
  • Join Date: Jan 2017
  • ShareSpark Member
Back to the Future Trilogy 5.1 Hindi Audios Org 384kbps




Back To The Future 1985
Format : AC-3
Format/lnfo : Audio Coding 3
Mode extension : CM (comple
Format settings, Endianness : Big
Codec ID : A_AC3
Duration : 1h 56mn
Bit rate mode : Constant
Bit rate : 384 Kbps
ChanneI(s) : 6 channels
Channel positions : F: L C R, S: L R, LFE
Sampling rate : 48.0 KHz
Bit depth : 16 bits
Compression mode : Lossy
Stream size : 319 MiB
Language : Hindi


Back To The Future 2 1989

 :info:
Format : AC-3
Format/lnlo : Audio coding 3
Mode extension : CM (complete Main)
Format settings, Endienness : Big
Codec ID :A_Ac3
Duration : 1h 48mn
Bit rate mode : Constant
Bit rate : 384 Kbps
Channel(s) : 6 channels
Channel positions : Front: L C R, Side: L R, LFE
sampling rate :48.0 Kflz
Bit depth : 16 bits
Compression mode : Lossy
Stream size : 297 MiB
Language : Hindi


Back To The Future 3 1990
 :info:
Format : AC—3
Format/ Info : Audio Coding 3
Mode extension : CM (complete main)
Format settings, Endianness : Big
Codec ID :A_AC3
Duration : 1h 58mn
Bit rate mode : Constant
Bit rate : 384 Kbps
Channel(s) : 6 channels
Channel positions: L C R, Side: L R. LFE
Sampling rate: 48 Hz
Bit depth : 16 bits
Compression mode : Lossy
Stream size :325 MiB
Language : Hindi


:download:
GDrive Link :



Enjoy :wave:

Share this topic on FacebookShare this topic on GoogleShare this topic on MySpaceShare this topic on TwitterShare this topic on Yahoo

« Last Edit: August 18, 2018, 01:43:19 AM by rjtsnd »


Thanks given by:


August 18, 2018, 06:10:11 AM
Reply #1
  • Global Moderator
  • Legend Member
  • *****
  • Thank You: 12180
  • Reputation: 2505
  • Activity:
    98.8%
  • Country: in
  • Posts: 5711
  • Topics: 4665
  • Join Date: Jan 2014
  • ıllıllı ѕмoĸιng ιѕ good ғor нealтн ıllıllı :)

Don't walk as you are king, walk as you don't care who the king is....!!

August 18, 2018, 08:29:38 AM
Reply #2
  • Semi Newbie
  • **
  • Thank You: 0
  • Reputation: 0
  • Activity:
    0.8%
  • Country: bd
  • Posts: 13
  • Topics: 0
  • Join Date: Aug 2017
  • ShareSpark Member

August 18, 2018, 03:25:10 PM
Reply #3
  • Devoted Member
  • **
  • Thank You: 0
  • Reputation: 0
  • Activity:
    5.4%
  • Country: pk
  • Posts: 118
  • Topics: 0
  • Join Date: Sep 2017
  • ShareSpark Member

 

Related Topics





Back to top
荷里活有个大老千 | Watch This Link! | Black Rock Shooter (1)