+ ShareSpark.net »  :::: Bollywood Zone » Regional Movies » Punjabi Movies
|- Jatt Vs Ielts 2018 x264 720p Amazon Esub Punjabi GOPISAHI


100% Recharge Offer

Jatt Vs Ielts 2018 x264 720p Amazon Esub Punjabi GOPISAHI

0 Members and 1 Guest are viewing this topic.

January 26, 2019, 04:44:46 PM
  • ***************
  • Conqueror
  • Legend Member
  • *****
  • Topic Author
  • Thank You: 1995
  • Reputation: 569
  • Activity:
    100%
  • Country: pk
  • Posts: 2373
  • Topics: 1629
  • Join Date: Mar 2015
  • =$ Success Never Ends $=
Jatt Vs Ielts 2018 x264 720p Amazon Esub Punjabi GOPISAHI








Format                         : Matroska
Format version                 : Version 4 / Version 2
File size                      : 811 MiB
Duration                       : 2 h 22 min
Overall bit rate               : 797 kb/s
Movie name                     : Jatt vs Ielts 2018 GOPISAHI

Format                         : AVC
Codec ID                       : V_MPEG4/ISO/AVC
Duration                       : 2 h 22 min
Bit rate                       : 699 kb/s
Width                          : 1 280 pixels
Height                         : 528 pixels
Display aspect ratio           : 2.40:1
Frame rate mode                : Constant
Frame rate                     : 24.000 FPS
Color space                    : YUV
Chroma subsampling             : 4:2:0
Bit depth                      : 8 bits
Scan type                      : Progressive
Bits/(Pixel*Frame)             : 0.043
Stream size                    : 711 MiB (88%)
Title                          : GOPISAHI
Writing library                : x264 core 157 r2935 545de2f

Audio
Format                         : AAC
Duration                       : 2 h 22 min
Bit rate                       : 96.0 kb/s
Channel(s)                     : 2 channels
Channel positions              : Front: L R
Sampling rate                  : 48.0 kHz
Frame rate                     : 46.875 FPS (1024 SPF)
Compression mode               : Lossy
Delay relative to video        : -21 ms
Stream size                    : 97.7 MiB (12%)
Title                          : GOPISAHI
Language                       : Panjabi

Text
Language                       : English




 :ss:











 :download:











Share this topic on FacebookShare this topic on GoogleShare this topic on MySpaceShare this topic on TwitterShare this topic on Yahoo




Tags:
 

Related Topics

  Subject / Started by Replies Last post
0 Replies
1641 Views
Last post February 01, 2018, 06:09:13 PM
by jattsahi2
0 Replies
197 Views
Last post December 28, 2018, 08:28:06 AM
by Special26
0 Replies
277 Views
Last post January 21, 2019, 01:18:25 PM
by shahzaibjaan
0 Replies
187 Views
Last post January 26, 2019, 04:27:41 PM
by shahzaibjaan
0 Replies
267 Views
Last post January 26, 2019, 04:33:54 PM
by shahzaibjaan




Back to top
huntssman winte | Latest Game Torrents | The Reaper