+ ShareSpark.net »  :::: Dubbed Zone (Dubbed English in Hindi) » English Movies Dubbed in Hindi » Dubbed Hindi Audio Files
|- The Amazing Spider-Man 2 (2014) Untouched BD 640Kbps Tamil & Telugu Audio


100% Recharge Offer

The Amazing Spider-Man 2 (2014) Untouched BD 640Kbps Tamil & Telugu Audio

0 Members and 1 Guest are viewing this topic.

August 24, 2014, 08:32:38 AM
The Amazing Spider-Man 2 (2014) Untouched BD 640Kbps Tamil & Telugu Audio


Tamil Audio INFO
Audio
ID                                       : 1
Format                                   : AC-3
Format/Info                              : Audio Coding 3
Mode extension                           : CM (complete main)
Format settings, Endianness              : Big
Codec ID                                 : A_AC3
Duration                                 : 2h 21mn
Bit rate mode                            : Constant
Bit rate                                 : 640 Kbps
Channel(s)                               : 6 channels
Channel positions                        : Front: L C R, Side: L R, LFE
Sampling rate                            : 48.0 KHz
Bit depth                                : 16 bits
Compression mode                         : Lossy
Stream size                              : 648 MiB (100%)
Title                                    : Tamil Bluray 5.1 640Kbps By Meet
Language                                 : Tamil
Default                                  : No
Forced                                   : No




Telugu Audio INFO

Audio
ID                                       : 1
Format                                   : AC-3
Format/Info                              : Audio Coding 3
Mode extension                           : CM (complete main)
Format settings, Endianness              : Big
Codec ID                                 : A_AC3
Duration                                 : 2h 21mn
Bit rate mode                            : Constant
Bit rate                                 : 640 Kbps
Channel(s)                               : 6 channels
Channel positions                        : Front: L C R, Side: L R, LFE
Sampling rate                            : 48.0 KHz
Bit depth                                : 16 bits
Compression mode                         : Lossy
Stream size                              : 648 MiB (100%)
Title                                    : Telugu Bluray 5.1 640Kbps bY MeeT
Language                                 : Telugu
Default                                  : No
Forced                                   : No

Share this topic on FacebookShare this topic on GoogleShare this topic on MySpaceShare this topic on TwitterShare this topic on Yahoo

« Last Edit: August 24, 2014, 11:15:55 AM by IяσиMαи007 »


Thanks given by:


Tags:
 

Related Topics





Back to top
Ch. 037 Full | Dream League Soccer 2019 | Brexit 2019